ZovSexa.NET - Международный открытый порно торрент-трекер без регистрации и рейтинга! Гигантская аудитория, огромное количество раздач, очень быстрая скорость скачивания! Дорогие пользователи мы рады приветствовать Вас на нашем порно торрент-трекере ZovSexa.NET.

Katie Zucchini Hairy Pussy Licker Needed (2017) HD 1080p

Добавил: Admin | Раздел: Релизы / Ролики и сцены




Год производства: 2017
Жанр: All Sex
В ролях: Katie Zucchini
Продолжительность: 38mn 2s

Тип видео : HD
Формат видео : MP4
Показать / Скрыть текст Video
ID : 1
Format : AVC
Format/Info : Advanced Video Codec
Format profile : [email protected]
Format settings, CABAC : Yes
Format settings, ReFrames : 2 frames
Format settings, GOP : M=2, N=30
Codec ID : avc1
Codec ID/Info : Advanced Video Coding
Duration : 38mn 2s
Bit rate mode : Variable
Bit rate : 12.4 Mbps
Maximum bit rate : 768 Kbps
Width : 1 920 pixels
Height : 1 080 pixels
Display aspect ratio : 16:9
Frame rate mode : Constant
Frame rate : 29.970 (30000/1001) fps
Original frame rate : 25.000 fps
Color space : YUV
Chroma subsampling : 4:2:0
Bit depth : 8 bits
Scan type : Progressive
Bits/(Pixel*Frame) : 0.200
Stream size : 3.30 GiB (99%)
Encoded date : UTC 1904-01-01 00:00:00
Tagged date : UTC 1904-01-01 00:00:00
Color range : Limited
Color primaries : BT.709
Transfer characteristics : BT.709
Matrix coefficients : BT.709

Audio
ID : 2
Format : AAC
Format/Info : Advanced Audio Codec
Format profile : LC
Codec ID : 40
Duration : 38mn 2s
Duration_LastFrame : -22ms
Bit rate mode : Constant
Bit rate : 130 Kbps
Channel(s) : 2 channels
Channel positions : Front: L R
Sampling rate : 44.1 KHz
Frame rate : 43.066 fps (1024 spf)
Compression mode : Lossy
Stream size : 35.3 MiB (1%)
Default : Yes
Alternate group : 1
Encoded date : UTC 1904-01-01 00:00:00
Tagged date : UTC 1904-01-01 00:00:00
Скриншоты:


Информация о торрент файле:

Скачать файл: Katie Zucchini Hairy Pussy Licker Needed (2017) HD 1080p.torrent (cидов: )


Скачать бесплатно Katie Zucchini Hairy Pussy Licker Needed (2017) HD 1080p порно торрент


Другие порно торренты:
  • Nina Skye (2017) HD 1080p
  • Zazie Skymm Morning Jog Hook Up (2017) HD 2160p
  • Zazie Skymm Morning Jog Hook Up (2017) HD 1080p
  • InTheCrack E1265 Demi Lopez XXX 2160p MP4-KTR
  • Beauty Office Meat Slave (2016) 1080p

  • Уважаемый посетитель, Вы зашли на сайт как незарегистрированный пользователь. Мы рекомендуем Вам зарегистрироваться либо зайти на сайт под своим именем.

    Информация

    Посетители, находящиеся в группе Гости, не могут оставлять комментарии к данной публикации.

    Случайные роликиСлучайные ролики

    Наверх
    Вверх